Login: Password:  Do not remember me

Categories




Wallpapers50 Amazing Ultra HD 4K Wallpapers 3840x2160 Px [Set 3]




50 Amazing Ultra HD 4K Wallpapers 3840x2160 Px [Set 3]
50 Amazing Ultra HD 4K Wallpapers 3840x2160 Px [Set 3]
163.54 MB | 3840X2160



      Read more...         

Wallpapers50 Amazing Ultra HD 4K Wallpapers 3840x2160 Px [Set 1]




50 Amazing Ultra HD 4K Wallpapers 3840x2160 Px [Set 1]
50 Amazing Ultra HD 4K Wallpapers 3840x2160 Px [Set 1]
170.16 MB | 3840X2160



      Read more...         

WallpapersSeamless Patterns - 10 Watercolor Patterns



Seamless Patterns - 10 Watercolor Patterns
Seamless Patterns - 10 Watercolor Patterns
10 JPG | 2500 x 2500 px | 300 DPI | 29 MB



      Read more...         

Wallpapers15 Gold and Glitter Textures Pack



15 Gold and Glitter Textures Pack
15 Gold and Glitter Textures Pack
15 Gold and Glitter Textures Pack
15 JPG | 3600 x 3600 px | 293 MB



      Read more...         

Wallpapers25 Blue and Gold Sea Textures Pack



25 Blue and Gold Sea Textures Pack
25 Blue and Gold Sea Textures Pack
25 JPG | 3600 x 3600 px | 12x12 inches | 300 dpi | 35 MB



      Read more...         

WallpapersAntique Catalog Papers with Vintage Backgrounds



Antique Catalog Papers with Vintage Backgrounds
Antique Catalog Papers with Vintage Backgrounds
18 JPG | 3600 x 3600 px | 12x12 inches | 300 dpi | 64 MB



      Read more...         

WallpapersTowels 20



Towels 20


Towels 20
MAX | OBJ | TEX | 143 mb

More info - https://3dsky.org/3dmodels/show/polotentsa_20



      Read more...         

WallpapersLiving Room Interior 3D Scene-1 for Cinema 4D and Octane Render



Living Room Interior 3D Scene-1 for Cinema 4D and Octane Render


Living Room Interior 3D Scene-1 for Cinema 4D and Octane Render | 316 mb
C4D | PSD

3D Model details:
- Interior modelled with Cinema 4D
- Optimized mesh - Nurbs and Subdivision Surface functions
- High-quality models and Octane shaders
- Texture resolution varies from 2k to 6k
- Photoshop post-producion file included



      Read more...         

WallpapersSpectre (2015)



Spectre (2015)


Spectre (2015)
BDRip | MKV | 1920x806 | English | H265 @ 4028 kbps | AC-3 @ 448 kbps | 2 h 28 min | 4.66 GiB
Subtitles: Español, Français, Português, English
Genre: Action, Adventure, Thriller
A cryptic message from Bond's past sends him on a trail to uncover a sinister organization. While M battles political forces to keep the secret service alive, Bond peels back the layers of deceit to reveal the terrible truth behind SPECTRE.

Files 03bea9ca3c574e73fab9da9d79288cda.mkv (4.7 GB)

Mediainfo General
Unique ID : 43450580292683594150284174626774342155 (0x20B04701A20E8725F0A1A32611E85A0B)
Complete name : ./03bea9ca3c574e73fab9da9d79288cda.mkv
Format : Matroska
Format version : Version 4 / Version 2
File size : 4.66 GiB
Duration : 2 h 28 min
Overall bit rate : 4 504 kb/s
Encoded date : UTC 2020-11-25 05:20:22
Writing application : mkvmerge v49.0.0 ('Sick Of Losing Soulmates') 64-bit
Writing library : libebml v1.4.0 + libmatroska v1.6.1 / Lavf58.29.100

Video
ID : 1
Format : HEVC
Format/Info : High Efficiency Video Coding
Format profile : Main [email protected]@Main
Codec ID : V_MPEGH/ISO/HEVC
Duration : 2 h 28 min
Bit rate : 4 029 kb/s
Width : 1 920 pixels
Height : 806 pixels
Display aspect ratio : 2.40:1
Frame rate mode : Constant
Frame rate : 23.976 (24000/1001) FPS
Color space : YUV
Chroma subsampling : 4:2:0
Bit depth : 10 bits
Bits/(Pixel*Frame) : 0.109
Stream size : 4.17 GiB (89%)
Writing library : x265 3.2.1+1-b5c86a64bbbe:[Windows][GCC 9.2.0][64 bit] 10bit
Encoding settings : cpuid=1111039 / frame-threads=4 / numa-pools=24 / wpp / no-pmode / no-pme / no-psnr / no-ssim / log-level=2 / input-csp=1 / input-res=1920x806 / interlace=0 / total-frames=0 / level-idc=0 / high-tier=1 / uhd-bd=0 / ref=3 / no-allow-non-conformance / no-repeat-headers / annexb / no-aud / no-hrd / info / hash=0 / no-temporal-layers / open-gop / min-keyint=24 / keyint=240 / gop-lookahead=0 / bframes=4 / b-adapt=2 / b-pyramid / bframe-bias=0 / rc-lookahead=60 / lookahead-slices=5 / scenecut=40 / radl=0 / no-splice / no-intra-refresh / ctu=64 / min-cu-size=8 / no-rect / no-amp / max-tu-size=32 / tu-inter-depth=1 / tu-intra-depth=1 / limit-tu=0 / rdoq-level=0 / dynamic-rd=0.00 / no-ssim-rd / signhide / no-tskip / nr-intra=0 / nr-inter=0 / no-constrained-intra / no-strong-intra-smoothing / max-merge=3 / limit-refs=1 / no-limit-modes / me=1 / subme=2 / merange=57 / temporal-mvp / no-hme / weightp / no-weightb / no-analyze-src-pics / deblock=-2:-2 / sao / no-sao-non-deblock / rd=3 / selective-sao=4 / early-skip / rskip / no-fast-intra / no-tskip-fast / no-cu-lossless / b-intra / no-splitrd-skip / rdpenalty=0 / psy-rd=2.00 / psy-rdoq=0.00 / no-rd-refine / no-lossless / cbqpoffs=0 / crqpoffs=0 / rc=abr / bitrate=4050 / qcomp=0.60 / qpstep=4 / stats-write=0 / stats-read=0 / ipratio=1.40 / pbratio=1.30 / aq-mode=3 / aq-strength=1.00 / cutree / zone-count=0 / no-strict-cbr / qg-size=32 / no-rc-grain / qpmax=69 / qpmin=0 / no-const-vbv / sar=1 / overscan=0 / videoformat=5 / range=0 / colorprim=1 / transfer=1 / colormatrix=1 / chromaloc=0 / display-window=0 / cll=0,0 / min-luma=0 / max-luma=1023 / log2-max-poc-lsb=8 / vui-timing-info / vui-hrd-info / slices=1 / no-opt-qp-pps / no-opt-ref-list-length-pps / no-multi-pass-opt-rps / scenecut-bias=0.05 / no-opt-cu-delta-qp / no-aq-motion / no-hdr / no-hdr-opt / no-dhdr10-opt / no-idr-recovery-sei / analysis-reuse-level=5 / scale-factor=0 / refine-intra=0 / refine-inter=0 / refine-mv=1 / refine-ctu-distortion=0 / no-limit-sao / ctu-info=0 / no-lowpass-dct / refine-analysis-type=0 / copy-pic=1 / max-ausize-factor=1.0 / no-dynamic-refine / no-single-sei / no-hevc-aq / no-svt / no-field / qp-adaptation-range=1.00
Default : Yes
Forced : No
Color range : Limited
Color primaries : BT.709
Transfer characteristics : BT.709
Matrix coefficients : BT.709

Audio
ID : 2
Format : AC-3
Format/Info : Audio Coding 3
Format settings, Endianness : Big
Codec ID : A_AC3
Duration : 2 h 28 min
Bit rate mode : Constant
Bit rate : 448 kb/s
Channel(s) : 6 channels
Channel positions : Front: L C R, Side: L R, LFE
Sampling rate : 48.0 kHz
Frame rate : 31.250 FPS (1536 SPF)
Bit depth : 16 bits
Compression mode : Lossy
Delay relative to video : -5 ms
Stream size : 475 MiB (10%)
Title : Surround
Language : English
Service kind : Complete Main
Default : Yes
Forced : No

Text #1
ID : 3
Format : PGS
Muxing mode : zlib
Codec ID : S_HDMV/PGS
Codec ID/Info : Picture based subtitle format used on BDs/HD-DVDs
Duration : 1 h 16 min
Bit rate : 407 b/s
Count of elements : 78
Stream size : 229 KiB (0%)
Title : Forced
Language : English
Default : Yes
Forced : No

Text #2
ID : 4
Format : PGS
Muxing mode : zlib
Codec ID : S_HDMV/PGS
Codec ID/Info : Picture based subtitle format used on BDs/HD-DVDs
Duration : 2 h 19 min
Bit rate : 25.5 kb/s
Count of elements : 2724
Stream size : 25.5 MiB (1%)
Language : English
Default : No
Forced : No

Text #3
ID : 5
Format : PGS
Muxing mode : zlib
Codec ID : S_HDMV/PGS
Codec ID/Info : Picture based subtitle format used on BDs/HD-DVDs
Duration : 2 h 27 min
Bit rate : 20.3 kb/s
Count of elements : 2260
Stream size : 21.3 MiB (0%)
Language : Spanish
Default : No
Forced : No

Text #4
ID : 6
Format : PGS
Muxing mode : zlib
Codec ID : S_HDMV/PGS
Codec ID/Info : Picture based subtitle format used on BDs/HD-DVDs
Duration : 2 h 27 min
Bit rate : 17.7 kb/s
Count of elements : 2308
Stream size : 18.6 MiB (0%)
Language : French
Default : No
Forced : No

Text #5
ID : 7
Format : PGS
Muxing mode : zlib
Codec ID : S_HDMV/PGS
Codec ID/Info : Picture based subtitle format used on BDs/HD-DVDs
Duration : 2 h 27 min
Bit rate : 20.2 kb/s
Count of elements : 2222
Stream size : 21.2 MiB (0%)
Language : Portuguese
Default : No
Forced : No

Menu
00:00:00.000 : :Chapter 1
00:06:09.119 : :Chapter 2
00:13:04.784 : :Chapter 3
00:18:58.471 : :Chapter 4
00:24:46.777 : :Chapter 5
00:28:04.099 : :Chapter 6
00:32:15.559 : :Chapter 7
00:36:58.717 : :Chapter 8
00:41:56.723 : :Chapter 9
00:46:13.271 : :Chapter 10
00:50:51.924 : :Chapter 11
00:53:43.220 : :Chapter 12
01:00:21.368 : :Chapter 13
01:06:48.296 : :Chapter 14
01:10:59.088 : :Chapter 15
01:15:14.093 : :Chapter 16
01:18:55.773 : :Chapter 17
01:26:11.041 : :Chapter 18
01:29:40.083 : :Chapter 19
01:36:43.548 : :Chapter 20
01:41:44.390 : :Chapter 21
01:49:06.415 : :Chapter 22
01:55:52.821 : :Chapter 23
01:59:39.339 : :Chapter 24
02:04:19.744 : :Chapter 25
02:09:28.511 : :Chapter 26
02:14:05.746 : :Chapter 27
02:19:42.374 : :Chapter 28




      Read more...         

Wallpapers15 Texture Backgrounds Bundle



15 Texture Backgrounds Bundle
15 Texture Backgrounds Bundle
15 Texture Backgrounds Bundle
15 JPG | 3600 x 3600 px | 300 DPI | RGB Color | 140 MB



      Read more...         

Page:

Search



Updates




Friend Sites


» ReleaseLog
» 0dayHome

Your Link Here ?
(Pagerank 4 or above)